Обзор компактного видеорегистратора SilverStone F1 CROD A87-WiFi

0 28

Сегодня к нам на обзор попал видеорегистратор от Российского производителя — SILVERSTONE F1 CROD A87-WiFi основными преимуществами, которого являются: компактные размеры, классический внешний вид, магнитное быстросъемное крепление, качество изготовление, поддержка Wi-Fi и качество видео в дневное время. Все это и многое другое предлагаю рассмотреть в обзоре ниже.

Средняя стоимость

Оглавление

Технические характеристики SilverStone F1 CROD A87-WiFi

Видеообзор

Упаковка и комплектация

Видеорегистратор SilverStone F1 CROD A87-WiFi поставляется в фирменной упаковке с бело-голубым оформлением. Визуально на коробке можно ознакомиться с техническими характеристиками и ключевыми особенностями гаджета.

Комплектация включает в себя:

  • видеорегистратор SilverStone F1 CROD A87-WiFi;
  • провод питания для подключения в гнездо прикуривателя с напряжение 12/24 вольта и диной около 3-х метров;
  • магнитное крепление на лобовое стекло автомобиля;
  • miniUSB-кабель для подключения к компьютеру;
  • руководство пользователя (инструкция по эксплуатации).

SilverStone F1 CROD A87-WiFi

Внешний вид

Видеорегистратор выполнен в классическом корпусе, который можно легко установить на лобовом стекле, не создавая помех обзору водителя. Корпус матовый и немаркий, к качеству сборки не придраться.

На лицевой стороне в козырьке над стеклянным объективом расположен Gps-модуль, а чуть ниже динамик.

На верхней грани можно увидеть быстросъемное магнитное крепление, микрофон и утопленную кнопку «RESET» предназначенную для перезагрузки устройства. Магнитный фиксатор совмещен с держателем на вакуумной присоской и шаровым механизмом, позволяющим регулировать поворот регистратора. Мощные магниты установлены в специальное углубление, позволяют надежно удерживать регистратор в держателе. Шаровый механизм поможет правильно расположить регистратор на лобовом стекле, а при необходимости повернуть для записи видео с сотрудником ДПС или в салоне автомобиля.

С правого торца расположен слот под карту памяти microSD с поддержкой до 32 Гб, и разъем mini USB подачи питания или подключения к персональному компьютеру. На нижнем торце находится наклейка с моделью и серийным номером.

Используйте карты памяти с минимальным классом записи 10 или выше. Установка 
и извлечение карты можно осуществлять только при выключенном
устройстве.

SilverStone F1 CROD A87-WiFi

Со стороны водителя размещен 1,5″ дисплей с разрешением 960х240, 6 кнопок управления, а также светодиодные индикаторы информирующие о работе и зарядке.

 

Настройка SilverStone F1 CROD A87-WiFi

Настройка регистратора осуществляется двумя способами — непосредственно через устройство или по сети Wi-Fi используя смартфон/планшет и специальное приложение, которое можно скачать на iOS и Android. Ниже рассмотрим оба способа. 

Назначение кнопок:

Кнопка Задача
ОК старт/стоп записи, фотографирование или подтверждение выбора
MENU вход/выход из меню, защита видео от перезаписи
Вверх перемещение вверх
Вниз перемещение вниз, включение/выключение микрофона
Режим (кнопка «М») переключение между режимами фото/видео/просмотр
Вкл/выкл. включение/выключение устройства

1. Через устройство

Меню стандартное и разделено на 2 подпункта — основные и второстепенные настройки. К основным относятся: разрешение, циклическая запись, HDR, экспозиция, детектор движения, запись звука, штамп на видео, G-сенсор. Второстепенные настройки: Wi-Fi, дата/время, автовыключение, режим парковки, звук кнопок, язык, подсветка экрана, частота освещения, форматирование, сброс настроек, версия ПО.

HDR (или HDRI — High Dynamic Range Imaging) –  это особая технология, которая повышает зернистость и контрастность видеозаписи. Ее использование позволяет сделать картинку более насыщенной и яркой, повышается резкость.

2. По Wi-Fi через приложение

Для настройки необходимо скачать и установить приложение CROD Wi-Fi смартфон/планшет, включить Wi-Fi в регистраторе и произвести сопряжение, используя имя сети — CROD и пароль — 123456789.

Мобильное приложение CROD Wi-Fi позволяет управлять регистратором, включая останавливая запись видео, просматривать уже отснятое видео и одновременно дублируя маршрут движения на карте, сохранять необходимые записи с регистратора на телефон с последующим дублированием в мессенджеры или социальные сети.

Количество настраиваемых функций меньше чем в настройках регистратора, но они включают самое необходимое:

  • запись звука;
  • штамп даты/времени;
  • выбор времени циклической записи;
  • выбор чувствительности G-сенсора;
  • выбор разрешение видео записи;
  • форматирование карты памяти;
  • сброс к заводским настройкам.

Видео съемка SilverStone F1 CROD A87-WiFi

Регистратор работает под управлением процессора NOVATEK NTK96658, а за качество съемки отвечает матрица SONY IMX323 с фокусным расстоянием 3.1, которая позволяет получить широкоугольную картинку высокой четкости. Дополнительно объектив имеет довольно неплохой угол обзора в 145 градусов. Максимальное разрешение видео Full HD 1920х1080 с частотой 30 кадров/сек, дополнительно присутствует псевдо Super HD 1728х1296, которое по сути является все тем же Full HD, только вытянутая.

Благодаря встроенному GPS-модулю на сохраненных видео фиксируются координаты и скорость передвижения.

SilverStone F1 CROD A87-WiFi

В солнечную погоду, при использовании разрешения видео Full HD 1080р номера попутных машин читаются на расстоянии 10 метров со скоростью до 60 км/ч. Номера встречных автомобилей можно разобрать при скорости до 30 км/ч и расстоянии не более 5 метров. В ночное время качество изображения несколько хуже, номера автомобилей видны, но трудно различимы.

При установленном разрешении Super HD 1728х1296 изображение вытягивается, становится более квадратным, угол обзора уменьшается до 100-110 градусов по диагонали. Номера остаются читаемы при попутном движении на расстоянии до 10 метров при скорости до 20 км/ч. При встречном движении номера не различимы уже при скорости 10 км/ч.













Формат : MPEG-4
Профиль формата : QuickTime
Идентификатор кодека : qt 0000.00 (qt )
Размер файла : 99.8 MiB
Продолжительность : 1 min 1 s
Общий поток : 13.7 Mb/s
Movie_More : CarDV-TURNKEY
Origin : NVT-IM

Video
Идентификатор : 1
Формат : AVC
Формат/Информация : Advanced Video Codec
Профиль формата : High@L4.1
Настройки формата : CABAC / 1 Ref Frames
Параметр CABAC формата : Yes
Параметр RefFrames формата : 1 frame
Параметр GOP формата : M=1, N=15
Идентификатор кодека : avc1
Идентификатор кодека/Информация : Advanced Video Coding
Продолжительность : 1 min 1 s
Битрейт : 11.9 Mb/s
Ширина : 1 920 pixels
Высота : 1 080 pixels
Соотношение сторон : 16:9
Режим частоты кадров : Constant
Частота кадров : 30.000 FPS
Цветовое пространство : YUV
Субдискретизация насыщенности : 4:2:0
Битовая глубина : 8 bits
Тип развёртки : Progressive
Бит/(Пиксели*Кадры) : 0.191
Размер потока : 86.4 MiB (87%)
Язык : English
Codec configuration box : avcC

Audio
Идентификатор : 2
Формат : PCM
Настройки формата : Little / Signed
Идентификатор кодека : sowt
Продолжительность : 1 min 1 s
Вид битрейта : Constant
Битрейт : 512 kb/s
Каналы : 1 channel
Частота : 32.0 kHz
Битовая глубина : 16 bits
Размер потока : 3.72 MiB (4%)
Язык : English

Формат : MPEG-4
Профиль формата : QuickTime
Идентификатор кодека : qt 0000.00 (qt )
Размер файла : 99,8 Мбайт
Продолжительность : 1 м. 1 с.
Общий поток : 13,7 Мбит/сек
Movie_More : CarDV-TURNKEY
Origin : NVT-IM

Видео
Идентификатор : 1
Формат : AVC
Формат/Информация : Advanced Video Codec
Профиль формата : High@L4.1
Настройки формата : CABAC / 1 Ref Frames
Параметр CABAC формата : Да
Параметр RefFrames формата : 1 кадр
Параметр GOP формата : M=1, N=15
Идентификатор кодека : avc1
Идентификатор кодека/Информация : Advanced Video Coding
Продолжительность : 1 м. 1 с.
Битрейт : 11,9 Мбит/сек
Ширина : 1728 пикселей
Высота : 1296 пикселей
Соотношение сторон : 4:3
Режим частоты кадров : Постоянный
Частота кадров : 30,000 кадров/сек
Цветовое пространство : YUV
Субдискретизация насыщенности : 4:2:0
Битовая глубина : 8 бит
Тип развёртки : Прогрессивная
Бит/(Пиксели*Кадры) : 0.177
Размер потока : 86,4 Мбайт (87%)
Язык : English
Codec configuration box : avcC

Аудио
Идентификатор : 2
Формат : PCM
Настройки формата : Little / Signed
Идентификатор кодека : sowt
Продолжительность : 1 м. 1 с.
Вид битрейта : Постоянный
Битрейт : 512 Кбит/сек
Каналы : 1 канал
Частота : 32,0 КГц
Битовая глубина : 16 бит
Размер потока : 3,72 Мбайт (4%)
Язык : English

Мы позаботились о Вас, и выбрали самые выгодные предложения в онлайн магазинах: БЕРУ, СИТИЛИНК

Вывод

85%

Компактный видеорегистратор SilverStone F1 CROD A87-WiFi, обладает — всеми необходимыми функциями, современной начинкой и хорошим качеством съемки с использованием разрешения видео FHD. На видеороликах присутствует штамп с датой, временем и скоростью движения. Быстрый просмотр роликов через мобильное приложение, сохранение и отправка мессенжерами. 

  • Функциональность
  • Качество сборки
  • Удобство в использовании
  • Качество съемки
 

Коментарии

Ваш электронный адрес не будет опубликован.

This website uses cookies to improve your experience. We'll assume you're ok with this, but you can opt-out if you wish. Принять Читать дальше