Обзор видеорегистратора Navitel MR150NV

0

Средняя стоимость NAVITEL MR150NV

Технические характеристики

Видеообзор

Упаковка и комплектация

Navitel MR150NV поставляется в упаковке из плотного картона с качественной полиграфией, что характерно для устройств подобного форм-фактора. На торцах коробки выделены ключевые особенности устройства в виде графических иконок, а также указан комплект поставки на нескольких языках.

Автомобильное зарядное устройство с питающим проводом около 3 метров с угловым штекером micro USB на конце. АЗУ имеет светло зеленую подсветку в момент подачи питания.

Комплектация:

  • видеорегистратор Navitel MR150NV;
  • автомобильное зарядное устройство 12-24v 1,5a;
  • USB кабель;
  • силиконовые крепёжные фиксаторы (4 шт);
  • руководство пользователя;
  • гарантийный талон;
  • салфетка из микрофибры;
  • подарочный ваучер для установки навигации Navitel на мобильные устройства.

Внешний вид

Визуально видеорегистратор Navitel MR150NV похож на обычное штатное зеркало установленное в салоне автомобиля, но чуть больше по диагонали и имеет небольшой объектив со стороны лобового стекла. Корпус выполнен из качественного пластика с высоким уровнем сборки, но небольшим конструктивным недочетом кнопок управления, которые иногда могут создавать небольшой люфт, что не сказывается на качестве записанного видео и звука.

Всю лицевую сторону занимает зеркало с небольшим эффектом увеличения. За зеркальной поверхностью расположился большой IPS экран с диагональю 4,5″, который практически не видно в спящем режиме. Чуть ниже надписи кнопок, которые расположены на нижнем торце.

На верхней грани находятся разъемы Mini-USB для подключения внешнего питания, активный AV-IN для подключения дополнительной камеры и слот карты памяти MicroSD с максимальным объемом до 64 Гб. 

navitel mr150nv

На нижней кромке расположены пять механических кнопок и отверстия под микрофон. Нажим четкий и ощущается характерный щелчок, так что вы никогда не ошибетесь во время настройки и управления. 

С тыльной стороны под импровизированной сеткой находится динамик для воспроизведения звука, утопленная в корпус кнопка «RESET», вентиляционные отверстия, прорезиненные крепежные элементы, которые надежно фиксируют гаджет на штатном зеркале и поворотный объектив с углом обзора 120 градусов.

После установки видеорегистратора на штатное зеркало существует возможность небольшого вращения объектива камеры как по горизонтали, так и по вертикали без поворота зеркальной поверхности.

Меню настроек и назначение кнопок

Назначение кнопок:

На лицевой стороне производитель заблаговременно нанес надписи кнопок, что упрощает управление даже во время управления. 

Кнопка Задача
POWER включение/выключение устройства и экрана во время работы.
UP

передвижение вверх в режиме меню или просмотре файлов, выбор дополнительной камере (при подключении в разъем AV-In).

OK подтверждение действия, выбор файла или пункта меню.
DOWN передвижение вниз в режиме меню или просмотре файлов, включение/выключение микрофона.
MENU

используется для входа в меню и перехода по категориям меню, выбор режима видеозаписи, фото, просмотр видео и фото, при длительном удержании блокировка файла от стирания.

Меню настроек:

Меню разделено на 2 подменю и в настройке интуитивно понятно. В первом окне находится содержится всего четыре пункта: настройка разрешения, цикл записи, задержка выключения, запись звука. Второе подменю более обширно и включает общие настройки самого видеорегистратора: звуковые сигналы, автоотключение экрана, дата и время, датчик удара, режим парковки. 

Примеры видео

Navitel MR150NV использует процессор MStar MSC8336 и матрицу SC2363 (night vision) с максимальным разрешением Full HD 1920х1080 и частотой 30 к/с. Стеклянная линза с углом обзора 120° по горизонтали позволяет получить хороший угол обзора и зафиксировать все происходящее на дороге. Днем номера попутных и встречных машин читаются на довольно приличном отдалении при условии солнечной погоды, но так же различимы на расстоянии до 10 метров в пасмурное и вечернее время. Установленная матрица SC2363 с режимом night vision на слабоосвещенных участках автоматически корректирует четкость картинки и позволяет без усилий разобрать дорожную обстановку.

Общее
Формат : MPEG-4
Профиль формата : QuickTime
Идентификатор кодека : qt 0000.02 (qt )
Размер файла : 131 Мбайт
Продолжительность : 1 м. 0 с.
Общий поток : 18,3 Мбит/сек

Видео
Идентификатор : 1
Формат : AVC
Формат/Информация : Advanced Video Codec
Профиль формата : Main@L5
Настройки формата : CABAC / 1 Ref Frames
Параметр CABAC формата : Да
Параметр RefFrames формата : 1 кадр
Параметр GOP формата : M=1, N=15
Режим смешивания : Container profile=Main@4.0
Идентификатор кодека : avc1
Идентификатор кодека/Информация : Advanced Video Coding
Продолжительность : 1 м. 0 с.
Битрейт : 18,0 Мбит/сек
Ширина : 2304 пикселя
Высота : 1296 пикселей
Соотношение сторон : 16:9
Режим частоты кадров : Постоянный
Частота кадров : 29,970 (30000/1001) кадров/сек
Цветовое пространство : YUV
Субдискретизация насыщенности : 4:2:0
Битовая глубина : 8 бит
Тип развёртки : Прогрессивная
Бит/(Пиксели*Кадры) : 0.201
Размер потока : 129 Мбайт (98%)
Язык : English
Цветовой диапазон : Limited
Основные цвета : BT.709
Характеристики трансфера : BT.709
Коэффициенты матрицы : BT.709
Codec configuration box : avcC

Аудио
Идентификатор : 2
Формат : ADPCM
Идентификатор кодека : 11
Идентификатор кодека/Подсказка : Intel
Продолжительность : 1 м. 0 с.
Продолжительность оригинала : 1 м. 0 с.
Вид битрейта : Постоянный
Битрейт : 256 Кбит/сек
Номинальный битрейт : 272 Кбит/сек
Каналы : 2 канала
ChannelLayout : L R
Частота : 32,0 КГц
Размер потока : 1,84 Мбайт (1%)
Размер потока оригинала : 1,95 Мбайт (1%)
Язык : English

Где купить?

Мы позаботились о Вас, и выбрали самые выгодные предложения в онлайн магазинах: СИТИЛИНК, БЕРУ.

Вывод

85%

Автомобильный видеорегистратор Navitel MR150NV в форме накладки на штатное зеркало будет удачным решением для тех кто хочет сохранить максимальный обзор в лобовое стекло с качественны видео как в дневное, так и в ночное время. Неоспоримым плюсом данного гаджета можно считать также затемненное зеркало, и возможность подключения второй выносной камеры.

  • Соотношение цена/качество
  • Комплектация
  • Качество видео
  • Качество сборки
 

Коментарии

Ваш электронный адрес не будет опубликован.

This website uses cookies to improve your experience. We'll assume you're ok with this, but you can opt-out if you wish. Принять Читать дальше