Обзор бюджетного видеорегистратора Harper DVHR-240

0

Сегодня в обзоре мы рассмотрим ультрабюджетный видеорегистратор Harper DVHR-240, который включает в себя все базовые функции видео и аудио фиксации дорожной обстановки с детализацией картинки HD (с возможностью интерполяция до Full HD), и углом обзора 120°.

Средняя стоимость Harper DVHR-240

Технические характеристики

Видеообзор

Упаковка и комплектация

Harper DVHR-240 поставляется в классической картонной упаковке белых тонов. На лицевой стороне изображен видеорегистратор, наименование модели и реальное разрешение видео. По торцам указаны: технические характеристики на нескольких языках и информация о производителе.

Комплектация:

  • автомобильный видеорегистратор Harper DVHR-240;
  • крепление на лобовое стекло автомобиля;
  • автомобильный адаптер питания;
  • руководство пользователя;
  • гарантийный талон.

Harper DVHR-240

Адаптер питания работает в диапазоне напряжений 12-24v и подойдет большинству автомобилей. Питающий провод около 3 метров с прямым штекером mini USB на конце. В момент подачи питания, подсвечивается светом. Внутри установлен сменный предохранитель на 2А.

Держатель выполнен в виде классической вакуумной присоски с шаровым механизмом регулировки. Имеется возможность поворота вокруг оси и изменения угла наклона. Блокировка тушки регистратора и держателя без дополнительной блокировки. Во время тестирования держатель не отпал и уверенно фиксировал гаджет.

Внешний вид

Визуально Harper DVHR-240 не отличается от других представителей этой категории автомобильных регистраторов. Пластиковый корпус собран довольно не плохо для ультрабюджетного гаджета, а отдельный плюс — это матовая поверхность, которая не создает дополнительных бликов и менее заметна для любителей поживиться чужим добром. Объектив занимает почти всю лицевую часть корпуса, что вполне стандартно. Чуть ниже можно увидеть  решетку под которой спрятан динамик.

Harper DVHR-240

Со стороны водителя основную часть занимает двух дюймовый TFT экран с разрешением 320*240 dpi. Углы обзора не очень высокие, поэтому картинка дисплея может иметь искажения. С правой стороны размещены 4 механические кнопки с пиктограммами. При нажатии  ощущается отчетливый щелчек, люфт и самопроизвольные нажатия отсутствуют.

Кнопки хорошо зафиксированы в корпусе, поэтому во время движения кнопки не создают посторонних звуков.

Harper DVHR-240

С левого торца присутствует наклейка с серийным номером устройства.

Harper DVHR-240

На верхней грани расположен разъем miniUSB, кронштейн держателя и физическая кнопка включения регистратора.

Harper DVHR-240

На нижней грани можно увидеть скрытую кнопку RESET, отверстие микрофона и слот под карту памяти MicroSD с поддержкой до 32 Гб.

Harper DVHR-240

Меню настроек и назначение кнопок

Назначение кнопок:

Под управление и настройку выделено 5 механических кнопок, которые расположены со стороны корпуса обращенной к водителю и верхней грани. 

Кнопка Задача
ВКЛ/ВЫКЛ

включение/выключение устройства.

М

короткое нажатие — выбор режима работы, длительное — вход в меню регистратора.

ВВЕРХ перемещение вверх в меню и по навигации просмотра файлов.
ВНИЗ перемещение вниз в меню и по навигации просмотра файлов.
ОК

вход в меню или подтверждение выбранного действия.

Меню настроек:

Оболочка меню выполнена в классическом стиле в виде списка и разделена на несколько страниц. Управление и настройка интуитивно понятно. В первом подменю производится настройка видеозаписи, которая включает в себя: разрешение, цикл записи, экспозиция, датчик движения, режим парковки, штамп даты и времени, G-сенсор. 

Особенно стоит обратить внимание на настройку качества фиксируемого видео, так как в регистраторе используется бюджетная матрица SP140A с максимальным разрешением HD 1280×720@30fps.

Второе подменю непосредственно относится к настройкам регистратора и включает в себя следующие подпункты: установка времени, автовыключение, отключение экрана, звук клавиш, выбор языка, частота мерцания, форматирование карты памяти, сброс на заводские настройки и просмотр текущей прошивки.

Микрофон

Микрофон видеорегистратора неплохо обрабатывает поступающий звук и при просмотре видеофайлов отчетливо слышно не только фоновую музыку, но и разговор в салоне автомобиля.

Примеры видео

Harper DVHR-240 работает под управлением процессора AX3291 и матрицей SP140A с максимальным интерполированным разрешением 1920×1080 и частотой 30 к/с . Угол обзора ограничен 120° градусами по диагонали и это стоит учитывать при установке, для получения максимального захвата дорожной обстановки.

Тестирование проходило с использованием стандартного разрешения HD 1280×720@30fps и интерполированного в FHD 1920×1080@30fps. Днем в солнечную погоду получаемое видео позволяет разглядеть цвет и марку машин как в попутном, так и в встречном направлении, без разбора государственного номерного знака. В ночное и вечернее время качество получаемого видео значительно уменьшается и частично засвечивается от встречных машин, поэтому становится сложно определить цвет, марку автомобиля и другую дорожную обстановку.



Общее
Формат : MPEG-4
Профиль формата : QuickTime
Идентификатор кодека : qt 0000.02 (qt )
Размер файла : 131 Мбайт
Продолжительность : 1 м. 0 с.
Общий поток : 18,3 Мбит/сек

Видео
Идентификатор : 1
Формат : AVC
Формат/Информация : Advanced Video Codec
Профиль формата : Main@L5
Настройки формата : CABAC / 1 Ref Frames
Параметр CABAC формата : Да
Параметр RefFrames формата : 1 кадр
Параметр GOP формата : M=1, N=15
Режим смешивания : Container profile=Main@4.0
Идентификатор кодека : avc1
Идентификатор кодека/Информация : Advanced Video Coding
Продолжительность : 1 м. 0 с.
Битрейт : 18,0 Мбит/сек
Ширина : 2304 пикселя
Высота : 1296 пикселей
Соотношение сторон : 16:9
Режим частоты кадров : Постоянный
Частота кадров : 29,970 (30000/1001) кадров/сек
Цветовое пространство : YUV
Субдискретизация насыщенности : 4:2:0
Битовая глубина : 8 бит
Тип развёртки : Прогрессивная
Бит/(Пиксели*Кадры) : 0.201
Размер потока : 129 Мбайт (98%)
Язык : English
Цветовой диапазон : Limited
Основные цвета : BT.709
Характеристики трансфера : BT.709
Коэффициенты матрицы : BT.709
Codec configuration box : avcC

Аудио
Идентификатор : 2
Формат : ADPCM
Идентификатор кодека : 11
Идентификатор кодека/Подсказка : Intel
Продолжительность : 1 м. 0 с.
Продолжительность оригинала : 1 м. 0 с.
Вид битрейта : Постоянный
Битрейт : 256 Кбит/сек
Номинальный битрейт : 272 Кбит/сек
Каналы : 2 канала
ChannelLayout : L R
Частота : 32,0 КГц
Размер потока : 1,84 Мбайт (1%)
Размер потока оригинала : 1,95 Мбайт (1%)
Язык : English

Где купить Harper?

Мы позаботились о Вас, и выбрали самые выгодные предложения в онлайн магазинах: ЭЛЬДОРАДО, МВИДЕО.

Вывод

78%

Ультрабюджетный видеорегистратор Harper DVHR-240 - простой и доступный вариант для фиксации дорожной обстановки с детализацией картинки HD (интерполяция до Full HD) и углом обзора 120°. Гаджет включает в себя все базовые функции: автостарт при подаче питания, датчик удара с блокировкой от перезаписи и датчик движения в режиме парковки.

  • Цена
  • Дизайн
  • Функционал
  • Удобство
  • Качество получаемого видео
 

Коментарии

Ваш электронный адрес не будет опубликован.

This website uses cookies to improve your experience. We'll assume you're ok with this, but you can opt-out if you wish. Принять Читать дальше