Мнение о Fujida Karma Pro / PlayMe P570SG / Neoline X-Cop 9100

Сегодня, не сильно углубляясь в детали, я постараюсь поделиться своим мнением по трем комбо-устройствам — Fujida Karma Pro — 13999 руб. / PlayMe P570SG — 13990 руб. / Neoline X-Cop 9100 — 17490 руб. Все эти модели довольно известны, но что они из себя представляют и в чем их отличия, можно сказать после общего тестирования.

Формфактор — особенности и удобство использования

Fujida Karma Pro и PlayMe P570SG визуально очень похожи на классические регистраторы прямоугольной формы, но размером чуть больше, подобные приборы для детектирования используют пач-антенну. Размещать удобно в любой верхней, средней части лобового стекла, подходят для всех типов машин.

PlayMe 570 Fujida karma pro Neoline 9100

Neoline X-Cop 9100 визуально выглядит как стандартное комбо-устройство с рупорной антенной, его размеры значительно больше и на лобовом стекле для некоторых может показаться более массивным. Размещать удобно в любой верхней, средней части лобового стекла, подходят не для всех типов машин, к примеру — Mercedes-Benz G-klasse.PlayMe 570 Fujida karma pro Neoline 9100

Пач-антенны от рупорной отличаются не только размерами и материалом, но и дальностью детектирования.

Во всех трех устройствах питание подается через держатель, а держатели можно вращать на 360 градусов, но в неолайне он на 3м скотче, а это не всегда удобно, особенно если нужно переставить из одной машины в другую. Также держатель сложно удалить с лобового стекла, а скотч оставляет следы, которые необходимо счищать. С присосками таких проблем нет, но существует мнение, что они чаще отваливаются. У меня за все время тестирования, при условии что присоска качественна, таких проблем не наблюдалось.

По управлению предпочтение отдам Fujida, оно более понятно и максимально простое. Настройки регистратора справа, радара слева, быстрые настройки разнесены — по три кнопки с двух торцов. Далее Neoline и PlayMe, в целом они будут схожи в удобстве.

Технические характеристики

[su_expand more_text=»СМОТРЕТЬ ПОЛНОСТЬЮ» height=»450″ link_color=»#ff0019″ link_style=»dashed» more_icon=»icon: arrow-up» less_icon=»icon: arrow-down»] [su_table]

  Fujida Karma Pro WiFi PlayMe P570SG Neoline X-COP 9100
Процессор Novatek 96663 Novatek 96658 Ambarella A7 (версия не указана)
Сенсор Sony IMX 307 Star Night SONY Exmor IMX 323 SONY Exmor IMX 322
Разрешение записи  

2560х1440 (30 к/с), 1920×1080 (30 к/с)

1920×1080 (30 к/с), 1280×720 (30 к/с) 1920×1080 (30 к/с), 1280×720 (30 к/с)
Битрейт видео 20,1 Мбит/сек 9,8 Мбит/сек 18,7 Мбит/сек
Угол обзора 170° 135° 135°
Встроенный аккумулятор Конденсатор Конденсатор н/д
Карта памяти micro SDHC до 32 ГБ micro SDHC до 32 ГБ  2 слота для карт MicroSD (до 128Гб). второй только для записи видео с первой
GPS-Информатор Да Да Да
Держатель с разъемом под питание Да Да Да
Защита записи Да Да Да
Дисплей 3” 3” 2”
Поддержка Сигнатуры (Фильтр Сигнатур от ложных срабатываний) Да Да Да
WDR Да Да Да
Датчик, реагирующий на жесты (отключения звука) Нет Нет Да
Авторегулировка яркости экрана Да Нет Нет
Подключение второй камеры Да Нет Нет
WiFi Да Нет Нет

[/su_table] [/su_expand]

Из таблицы выше видно, что PlayMe P570SG и Neoline X-COP 9100 имеют хоть и разную начинку, но в целом практически равную, единственное Neoline выигрывает по доработкам — датчик, реагирующий на жесты (отключения звука) и второй разъем под карту памяти, которая предназначена только для копирования информации с основной камеры. Fujida Karma Pro WiFi использует более современное железо, которое позволяет обработать два потока видео в формате FullHD или один поток в SuperHD (интерполяция, но очень хорошая), а также дополнительные плюшки такие как WiFi для удаленного управления и обновления и авторегулировки яркости экрана в зависимости от внешнего освещения.  

Видео

Все три гибрида оснащены матрицей SONY, но разных серий — IMX 307 Star Night / IMX 323 / IMX 322. Эти сенсоры могут похвастаться хорошей проработкой видео в темное время суток, но все они двухмегапиксельные, поэтому максимальное разрешение видео FullHD — 1920х1080.

В отличии от PlayMe и Neoline у Fujida в настройках видео дополнительно присутствует SuperHD разрешение — 2304х1296, достигается оно при помощи интерполяции, поэтому тестировать будем только FullHD.

Если разделить эти три гибрида по уровню начинки, то на первом месте будет Fujida (IMX 307 + Novatek 96663) — шикарная картинка в ночное время, далее Neoline (IMX 322 + Ambarella A7) и PlayMe (IMX 323 + Novatek 96658) — оба варианта схожи, но кардинальных отличий не имеют.

К сожалению в Neoline X-COP 9100 не указана версия процессора, но из опыта могу предположить это что-то между LA30 и LA55.

В дневное время все три устройства снимают практически одинаково, каких-то кардинальных отличий нет. Но в ночное время однозначно побеждает Fujida картинка лучше просматривается и бликов значительно меньше. После идет Neoline, картинка темнее, но в отличие от PlayMe детали просматриваются лучше. 

[tabs]
[tab title=»Fujida Karma Pro WiFi» id=»»][su_expand more_text=»СМОТРЕТЬ ПОЛНОСТЬЮ» height=»450″ link_color=»#ff0019″ link_style=»dashed» more_icon=»icon: arrow-up» less_icon=»icon: arrow-down»]
Видео
Идентификатор : 1
Формат : AVC
Формат/Информация : Advanced Video Codec
Профиль формата : High@L5.1
Настройки формата : CABAC / 1 Ref Frames
Параметр CABAC формата : Да
Идентификатор кодека : avc1
Идентификатор кодека/Информация : Advanced Video Coding
Продолжительность : 3 м. 1 с.
Битрейт : 20,1 Мбит/сек
Ширина : 1920 пикселя
Высота : 1080 пикселей
Соотношение сторон : 16:9
Режим частоты кадров : Постоянный
Частота кадров : 30,000 кадров/сек
Цветовое пространство : YUV
Субдискретизация насыщенности : 4:2:0
Битовая глубина : 8 бит
Тип развёртки : Прогрессивная
Бит/(Пиксели*Кадры) : 0.224
Размер потока : 433 Мбайт (98%)

Аудио
Идентификатор : 2
Формат : AAC LC
Формат/Информация : Advanced Audio Codec Low Complexity
Идентификатор кодека : mp4a-40-2
Продолжительность : 3 м. 1 с.
Вид битрейта : Переменный
Битрейт : 96,0 Кбит/сек
Каналы : 1 канал
Channel layout : C
Частота : 32,0 КГц
Частота кадров : 31,250 кадров/сек (1024 SPF)
Метод сжатия : С потерями
Размер потока : 2,07 Мбайт (0%)
[/su_expand][/tab]
[tab title=»PlayMe P570SG» id=»»][su_expand more_text=»СМОТРЕТЬ ПОЛНОСТЬЮ» height=»450″ link_color=»#ff0019″ link_style=»dashed» more_icon=»icon: arrow-up» less_icon=»icon: arrow-down»]
Видео
Идентификатор : 1
Формат : AVC
Формат/Информация : Advanced Video Codec
Профиль формата : High@L4.1
Настройки формата : CABAC / 1 Ref Frames
Параметр CABAC формата : Да
Идентификатор кодека : avc1
Идентификатор кодека/Информация : Advanced Video Coding
Продолжительность : 2 м. 0 с.
Битрейт : 9833 Кбит/сек
Ширина : 1920 пикселей
Высота : 1080 пикселей
Соотношение сторон : 16:9
Режим частоты кадров : Постоянный
Частота кадров : 30,000 кадров/сек
Субдискретизация насыщенности : 4:2:0
Битовая глубина : 8 бит
Тип развёртки : Прогрессивная
Бит/(Пиксели*Кадры) : 0.158
Размер потока : 141 Мбайт (96%)

Аудио
Идентификатор : 2
Формат : AAC LC
Формат/Информация : Advanced Audio Codec Low Complexity
Идентификатор кодека : mp4a-40-2
Продолжительность : 1 м. 59 с.
Вид битрейта : Переменный
Битрейт : 96,0 Кбит/сек
Каналы : 1 канал
Channel layout : C
Частота : 32,0 КГц
Частота кадров : 31,250 кадров/сек (1024 SPF)
Метод сжатия : С потерями
Размер потока : 1,37 Мбайт (1%)
[/su_expand][/tab]
[tab title=»Neoline X-COP 9100″ id=»»][su_expand more_text=»СМОТРЕТЬ ПОЛНОСТЬЮ» height=»450″ link_color=»#ff0019″ link_style=»dashed» more_icon=»icon: arrow-up» less_icon=»icon: arrow-down»]
Видео
Идентификатор : 1
Формат : AVC
Формат/Информация : Advanced Video Codec
Профиль формата : Main@L4
Настройки формата : CABAC / 2 Ref Frames
Параметр CABAC формата : Да
Идентификатор кодека : avc1
Идентификатор кодека/Информация : Advanced Video Coding
Продолжительность : 3 м. 0 с.
Вид битрейта : Переменный
Битрейт : 18,7 Мбит/сек
Максимальный битрейт : 19,8 Мбит/сек
Ширина : 1920 пикселей
Высота : 1080 пикселей
Соотношение сторон : 16:9
Режим частоты кадров : Постоянный
Частота кадров : 29,970 (30000/1001) кадров/сек
Битовая глубина : 8 бит
Тип развёртки : Прогрессивная
Бит/(Пиксели*Кадры) : 0.301
Размер потока : 402 Мбайт (96%)
Заголовок : Ambarella AVC

Аудио
Идентификатор : 2
Формат : AAC LC
Формат/Информация : Advanced Audio Codec Low Complexity
Идентификатор кодека : mp4a-40-2
Продолжительность : 3 м. 0 с.
Вид битрейта : Постоянный
Битрейт : 128 Кбит/сек
Каналы : 2 канала
Channel layout : L R
Частота : 48,0 КГц
Частота кадров : 46,875 кадров/сек (1024 SPF)
Метод сжатия : С потерями
Размер потока : 2,75 Мбайт (1%)
Заголовок : Ambarella AAC
[/su_expand][/tab]
[/tabs]

Радарная часть

Все три устройства оснащены своей уникальной сигнатурной фильтрацией ложных срабатываний и для лучшего понимания насколько они качественно отрабатывают тесты проходили на территории Москвы и МО. 

Каждый прибор оснащен GPS-информером и в целом все они отработали по базе без изъянов. По наполненности я не увидел проблем, обновления регулярны.

По фильтрации ложных срабатываний, все три устройства показали очень похожие результаты. По количеству детектирования в К-диапазоне (ложняки) PlayMe и Fujida показали схожие результаты. Neoline незначительно, но чаще оповещал.

По детектированию все устройства отработали неплохо, но в отличие от своих конкурентов Neoline метров на 100-150 информировал раньше и связано это с тем что рупорная антенна более чувствительна, но от этого больше и ложных срабатываний. Возможно это кому-то и поможет, но лично для меня эта цифра незначительна.

Вывод

Из выше написанного Вы сами сможете сделать свой выбор, но ниже в таблице я поставил свои оценки по трехбалльной шкале. И не забываем о цене: Fujida Karma Pro — 13999 руб / PlayMe P570SG — 13990 руб. / Neoline X-Cop 9100 — 17490 руб. 

[su_table]

  Корпус Начинка + интересные решения Держатель Удобство использования  Видео Радарная часть Итог
Fujida Karma Pro 3 3 3 3 3 2 17
PlayMe P570SG 3 1 3 2 1 2 12
Neoline X-Cop 9100 2 2 2 2 2 2,5 12,5

[/su_table]

Мы будем рады и вашему мнению

Оставить отзыв

VideoregObzor
Logo
Enable registration in settings - general
Сравнить товары
  • Всего (0)
Сравнить
0