Обзоры, статьи, новости.

Обзор видеорегистратора INTEGO KITE

obzor videoregistratora intego kite
2 10 254

Видеорегистратор Intego Kite появился на рынке уже больше года назад, но уже в то время он получил всеми привычную и удобную компоновку корпуса «моноблок в горизонтальном исполнении» и одну из самых современных комплектующих баз (Ambrella A7Al50, Матрица OV4689, Super HD 2304×1296, широкоугольный объектив 160 гр, GPS-модуль, база стационарных камер РФ и стран СНГ). В этом обзоре я постараюсь разобрать KITE полностью и показать, чего он стоит.

1.Внешний вид и комплектация.

На упаковку не буду тратить много времени. Она аккуратная, плотная, информативная.

После вскрытия упаковки, первым делом в руки попадает сам регистратор Kite, который получил большой высококонтрастный дисплей на лицевой стороне 2,7 дюйма*, приятный на ощупь, шероховатый, матовый корпус и довольно большой объектив на фронтальной стороне регистратора, угол обзора у которого составляет 160 градусов по ДИАГОНАЛИ. Правда, на самом объективе написано 170 градусов, но будем думать что это опечатка.

*Экран максимально информативный на него выводится вся информация, которая может пригодиться во время движения (дата, скорость, ограничение скорости, вкл. /выкл. режимы, расстояние до объекта и т.д.) и в то же время он не отвлекает от вождения.

По торцам и в верхней части регистратора расположены кнопки управления и разъемы для установки карт памяти Micro SD (максимально поддерживаемая карта 32 Gb), для подключения провода Micro USB и питания, а также разъем с контактами для подключения кронштейна Easy Touch.

Немного уделю внимания кронштейну EasyTouch. Помимо основной функции, фиксации регистратора на лобовом стекле, он еще выполняет роль док станции со встроенным модулем GPS и разъемом для подключения питания.
Питание подключенное к кронштейну упрощает способ установки, снятия регистратора на лобовом стекле и придает более приятный вид когда провода менее заметны.
GPS-модуль предназначен для отслеживания движения машины, фиксации скорости и информировании о стационарных камерах, опасных участках на дороге, превышения скорости на участке*

*Не забывайте обновлять базу камер на оф. сайте http://www.intego.ru/produktsiya/vid…egistratorgps/

GPS база данных содержит следующие типы точек:

-Стационарные, в том числе маломощные камеры ДПС сложно детектируемые радарной частью.
-Камеры направленные по ходу движения (в спину)
-Многофункциональные камеры, осуществляющих контроль одновременно двух и более нарушений ПДД, таких как скорость движения, движение по обочине, проезд нерегулируемых пешеходных переходов, проезда Стоп-линии, поворот из второго ряда, движение по полосе предназначенной только для общественного транспорта.
-Стационарные посты ДПС
-Система поток
-Радарный комплекс «Стрелка СТ»
-Камера контроля проезда светофора
-Система без радарного контроля средней скорости на участке «Автодория»
-Камера контроля движения по выделенной полосе общественного транспорта
-Муляжи камер ДПС
-Места базирования мобильных постов ДПС
-Места установки треног с радарами измерения скорость
-Камеры контроля движения, осуществляющие контроль за проездом грузового транспорта и некоторых нарушений
-Места установки дорожных знаков
-Искусственная неровность (лежачий полицейский)
-Осторожно дети
-Пешеходный переход
-Железнодорожный переезд
-Опасный перекресток
-Опасный поворот
-Прочие опасности
-Неровная дорога

Обзор Intego Kite Часть 1 внешний вид и комплектация

Комплектация регистратора:
— Видеорегистратор
— Кронштейн для крепления
— Автомобильный адаптер питания
— Инструкция по эксплуатации
— Гарантийный талон
— USB-кабель

2.Разбор регистратора Intego Kite. Меню настроек.
Внутренняя начинка соответствует заявленным характеристикам и само качество сборки не заставляет сомневаться в том, что он сделан не на дешевом кустарном китайском заводе.

Меню и управление* КАЙТА простое. Три вкладки, отвечающие за настройки радарной части, настройки видеорегистратора и основные настройки.

Кнопки управления
Кнопка «М». Выход в меню и в режиме подменю вернуться назад без сохранения.
Кнопка «Стрелка вверх». Отвечает за защиту файла от перезаписи после заполнения карты памяти. В режиме просмотра настройка регулировки EV. В режиме настроек перемещение курсора вверх, а при длительном нажатие– добавляет точку POI
Кнопка «Стрелка вниз». Во время записи видео вкл./выкл. звукозаписи. В режиме просмотра -настройка регулировки EV. В режиме настроек — перемещение курсора внизу и удаление точек POI при длительном нажатии, а также отключение звука при записи.
Кнопка «ОК» Включение отключение записи видео и подтверждение действий в меню настроек. В режиме фото, одним нажатием фотографировать.
Кнопка «MODE». Переключение между режимами фото, видео, просмотра галереи. Отвечает за выключение экрана.

Хотел бы обратить внимание на интересную функцию, используемую в регистраторе, LDWSдатчик оповещения о сходе с полосы движения. Она будет актуально для тех автовладельцев, кто часто ездит за рулем на далекие расстояния и мало спит. Система настройки немного мудреная (Жалко в инструкции нет подробного описания данной функции), но вполне рабочая.

*Верхние кнопки расположены слишком близко друг к другу и нет явного между ними промежутка.

Обзор Intego Kite Часть 2 Меню

3.Примеры работы в разных режимах
Характеристики видео с разрешением 1280x720 60к/с

Идентификатор: 1

Формат: AVC

Формат/Информация: Advanced Video Codec

Профиль формата: Main@L3.2

Параметр CABAC формата: Да

Параметр ReFrames формата: 2 кадра

Параметр GOP формата: M=3, N=15

Идентификатор кодека: avc1

Идентификатор кодека/Информация: Advanced Video Coding

Продолжительность: 3 м. 0 с.

Вид битрейта: Переменный

Битрейт: 12,0 Мбит/сек

Ширина: 1280 пикселей

Высота: 720 пикселей

Соотношение сторон: 16:9

Режим частоты кадров: Постоянный

Частота кадров: 59,940 (60000/1001)кадров/сек

Цветовое пространство: YUV

Субдискретизация насыщенности: 4:2:0

Битовая глубина: 8 бит

Тип развёртки : Прогрессивная

Бит/(Пиксели*Кадры): 0.217

Размер потока: 257 Мбайт (99%)

Заголовок: Ambarella AVC

Характеристики видео с разрешением 1920x1080 30к/с

Формат: AVC

Формат/Информация: Advanced Video Codec

Профиль формата: Main@L4

Параметр CABAC формата: Да

Параметр ReFrames формата: 1 кадр

Параметр GOP формата: M=1, N=15

Идентификатор кодека: avc1

Идентификатор кодека/Информация: Advanced Video Coding

Продолжительность: 3 м. 0 с.

Вид битрейта: Переменный

Битрейт: 12,0 Мбит/сек

Ширина: 1920 пикселей

Высота: 1080 пикселей

Соотношение сторон: 16:9

Режим частоты кадров: Постоянный

Частота кадров: 29,970 (30000/1001)кадров/сек

Цветовое пространство: YUV

Субдискретизация насыщенности: 4:2:0

Битовая глубина: 8 бит

Тип развёртки: Прогрессивная

Бит/(Пиксели*Кадры): 0.193

Размер потока: 257 Мбайт (99%)

Заголовок: Ambarella AVC

Характеристики видео с разрешением 2304x1296 30к/с

Идентификатор: 1

Формат: AVC

Формат/Информация: Advanced Video Codec

Профиль формата: Main@L5

Параметр CABAC формата: Да

Параметр ReFrames формата: 1 кадр

Параметр GOP формата: M=1, N=15

Идентификатор кодека: avc1

Идентификатор кодека/Информация: Advanced Video Coding

Продолжительность: 3 м. 0 с.

Вид битрейта: Переменный

Битрейт: 12,0 Мбит/сек

Ширина: 2304 пикселя

Высота: 1296 пикселей

Соотношение сторон: 16:9

Режим частоты кадров: Постоянный

Частота кадров: 29,970 (30000/1001)кадров/сек

Цветовое пространство: YUV

Субдискретизация насыщенности: 4:2:0

Битовая глубина: 8 бит

Тип развёртки: Прогрессивная

Бит/(Пиксели*Кадры): 0.134

Размер потока: 257 Мбайт (99%)

Заголовок: Ambarella AVC

Характеристики видео с разрешением 2560x1080 30к/с

Идентификатор: 1

Формат: AVC

Формат/Информация: Advanced Video Codec

Профиль формата: Main@L5

Параметр CABAC формата: Да

Параметр ReFrames формата: 1 кадр

Параметр GOP формата: M=1, N=15

Идентификатор кодека: avc1

Идентификатор кодека/Информация: Advanced Video Coding

Продолжительность: 3 м. 0 с.

Вид битрейта: Переменный

Битрейт: 12,0 Мбит/сек

Ширина: 2560 пикселей

Высота: 1080 пикселей

Соотношение сторон: 2,40:1

Режим частоты кадров: Постоянный

Частота кадров: 29,970 (30000/1001)кадров/сек

Цветовое пространство: YUV

Субдискретизация насыщенности: 4:2:0

Битовая глубина: 8 бит

Тип развёртки: Прогрессивная

Бит/(Пиксели*Кадры): 0.145

Размер потока: 258 Мбайт (99%)

Заголовок: Ambarella AVC

Из роликов видно, что он снимает довольно неплохо, правда есть не большая зернистость и тут есть над чем поработать с выпуском нового программного обеспечения, но это не мешает для прочтения номеров попутного и встречного движения в дневное и ночное время на приличных расстояниях. Особенно порадовала ночная съемка.

Пример видео Intego Kite 2560х1080

https://youtu.be/iE4or9cJxXU

Пример видео Intego Kite 2304x1296

https://youtu.be/srDhVMU3y3A

Пример видео Intego Kite 1920x1080

https://youtu.be/ij7aFiS__TA

Пример видео Intego Kite 1280x720 60 к/с

https://youtu.be/Al5pDyNV-R4

4.Вывод

Видеорегистратор INTEGO KITE во время тестирования показал себя с хорошей стороны. Если судить его по 10-ти бальной шкале, то смело можно ставить 8-8,5 балов (-1 бал за ПО которое стоит дорабатывать). Кайт имеет одну из самых современных начинок (Ambrella A7Al50, Матрица OV4689, Super HD 2304?1296, GPS-модуль) и характеристик (Super HD 2304?1296 и 1280?720 60к/с, широкоугольный объектив 160 гр), получил довольно неплохой и востребованный функционал (база стационарных камер РФ и стран СНГ, LDWS-контроль движения по полосе, WDR), он удобен в использовании и соответствует тем требованиям, которые в последнее время нужны автолюбителям.

  1. Амур Говорит

    друг подскажи как обновить базу данных?не могу разобраться,радар-детектор обновляю там все просто но тут какая то канитель? я так думаю всю прошивку надо менять просто чтобы обновить базу данных радара?в инете не нигде инструкции по обновлению

    1. Veselchak Говорит

      Добрый день!

      1. Скопировать файл прошивки «firmware.bin» на карту памяти.
      2. Включить прибор при помощи зарядного устройства.
      3. После загрузки на экране появится сообщение с выбором: «Обнов. прошивку». ДА или НЕТ.
      4. Выбрать «Да» кнопками «Up/Down»: с правой стороны прибора, верхняя или нижняя.
      5. Нажать кнопку «ОК»: правая верхняя.
      6. На экране должен отображаться процесс прошивки в виде полосы прогресса с надписью: «Обработка».
      7. После окончания прошивки, прибор автоматически выключится.
      8. Извлечь карту памяти, удалить файл прошивки с карты и вновь установить.
      9. Включить прибор от зарядного устройства.
      10.Сделать необходимые настройки языка интерфейса и часового пояса.

Коментарии

Ваш электронный адрес не будет опубликован.