Обзоры, статьи, новости.

Обзор ARTWAY AV-600. Бюджетное 2-х канальное зеркало

obzor artway av 600 byudzhetnoe 2 h kanalnoe zerkalo 28
1 461

Автомобильный видеорегистратор зеркало с двумя камерами поможет решить несколько задач одновременно:

  • При установке в салоне автомобиля оно будет менее заметно и не будет привлекать лишнего внимания.
  • Не размещая дополнительных приборов на лобовом стекле, установить регистратор на штатное зеркало.
  • Установка второй камеры поможет Вам запечатлеть все, что происходит внутри салона автомобиля или снаружи, а также во время парковки.
  • Записать всё, что происходит во время движения на дороге.

На рынке автомобильных устройств можно найти большое количество зеркал с камерами, но в некоторых случаях цена бывает заоблачной и для многих неинтересной. В этом обзоре будет рассмотрен бюджетная модель ARTWAY AV-600.

Что это за устройство и как оно покажет себя в работе, покажет только время. Сейчас, в ходе детально тестирования, предлагаем разобраться в том, насколько он хорош за ту среднюю сумму, которая установлена на основе данных Яндекс. Маркета.


Технические характеристики:

Количество камер: 2

Циклический режим: есть (off, 1min, 2min, 5min)

Материал линз объектива: стекло / 6 линз

Разрешение матрицы (Мпикс.): видео 1,3 МП / фото 3 МП

Тип матрицы: CCD/CMOS (1/4)

Максимальное разрешение видеосъемки: FULL HD 1920*1080 30 к/с

Угол обзора объектива, гр.: 120

Возможность съемки фото / Разрешение фото, Мпикс.: 3M 1920*1440 2M 1600*1200 1.3M 1280*960 VGA 640*480

Встроенная подсветка: нет

Форматы записи видео: AVI

Видеокодек: M-Jpeg

Диагональ экрана: 4,3″

Переход в спящий режим (Screen saver): да

Поддержка карт памяти: Micro SD card (до 32Gb 10-го класса)

G-сенсор (датчик удара): есть

Датчик движения: есть

Кнопка SOS: есть

Функцией TV-выход AV: есть

Автостарт записи: есть

Встроенный динамик (воспроизведение звука): есть

Встроенный микрофон (запись звука): есть

Время отключения (Auto power off (Shutdown time)): 1 мин / 3 мин / 5 мин / выкл.

Штамп даты и времени на видео: есть

Внешний вид и комплектация

ARTWAY AV-600 поставляется в стандартной упаковке в фирменном темном оформлении. В связи с тем, что зеркало бюджетного уровня, мы получаем упаковку эконом варианта без дополнительных степеней защиты. Поэтому перед покупкой рекомендуем Вам детально проверить работоспособность устройства.

Комплектация включает в себя:

  • Провод питания в прикуриватель
  • Две крепежные резинки для фиксации на штатном зеркале
  • Вторую выносную камеру
  • Провод подключения второй камеры
  • Элементы крепежей фиксации для второй камеры
  • Инструкция на русском языке
  • Гарантийный талон

Внешне ARTWAY AV-600 имеет стандартную пресс-форму, которое не имеет отличий от других аналогичных приборов и довольно приличное качество сборки.

На лицевой стороне под зеркальной поверхностью скрывается большой и яркий дисплей диагональю 4.3”. В активном режиме можно произвести настройку регистратора с помощью кнопок управления, которые находятся в нижней части зеркала, а также просмотреть отснятое видео с двух камер. В неактивном режиме дисплей за зеркалом не видно, что говорит о хорошем и качественном напылении.

В верхней части расположены разъемы для подключения питания и к компьютеру mini-USB, подключения второй камеры AV-IN (Jack 3.5), слот под карту памяти micro SD (во время тестирования использовалась карта объемом на 32 Gb) и разъем DC-IN.

Обычно разъем DC-IN отвечает за подключение питания, как и написано в инструкции.

С задней части расположены крепежные элементы для установки и фиксации, две мягкие вставки, которые соприкасаются с зеркальной поверхностью штатного зеркала, микрофон и кнопка перезагрузки.

 

Правее находиться стеклянный объектив, который можно будет настроить.

 

Вторую камеру, которая идет в комплекте можно использовать как парковочную, для этого ее нужно подключить к фаре заднего хода вашего автомобиля. В этом случае при включении передачи заднего хода на дисплее зеркала ARTWAY AV-600 появится изображения с задней камеры с сеткой парктроника.

У ARTWAY AV-600 одно меню с тремя подразделами. Первый отвечает за настройку разрешения видео, Вы можете выбрать максимальное разрешение 1920*1080, среднее 1280*720 и минимальное 640*480. Второй отвечает за цикличность записи 1 мин., 2 мин., 5 мин. и выключено. В третьем разделе включены все второстепенные настройки регистратора, которыми Вы вряд ли будете пользоваться постоянно.

Видео

При съемке видео используется матрица CCD/CMOS (1/4) с максимальным разрешением 1,3 МП. Ниже приведены данные видео с двух камер.

Первая, основная:

Codec ID: MJPG

Duration: 1 min 0 s

Bit rate: 26.1 Mb/s

Width: 1 920 pixels

Height: 1 080 pixels

Display aspect ratio: 16:9

Frame rate: 30.000 FPS

Color space: YUV

Chroma subsampling: 4:2:0

Bit depth: 8 bits

Compression mode: Lossy

Bits/(Pixel*Frame): 0.420

Stream size: 188 MiB (99%)

Вторая камера (парковка):

Codec ID: MJPG

Duration: 1 min 0 s

Bit rate: 4 190 kb/s

Width: 720 pixels

Height: 480 pixels

Display aspect ratio: 3:2

Frame rate: 25.000 FPS

Color space: YUV

Chroma subsampling: 4:2:0

Bit depth: 8 bits

Compression mode: Lossy

Bits/(Pixel*Frame): 0.485

Stream size: 30.4 MiB (68%)

Перед тем как рассказывать про качество видео, хотелось напомнить, что данный регистратор — это очень бюджетное многофункциональное устройство.

Качество видео находится на среднем уровне, можно сказать, что чуть ниже среднего, но его будет достаточно чтобы зафиксировать момент ДТП. Максимального качества видео можно добиться от основной камеры в том случае, когда она работает одна, без активной второй камеры. Во время движения различима разметка и дорожные знаки, номера смазываются и их можно разглядеть только на близком расстоянии если Вы идете в одном потоке.

Вторая камера предназначена только для парковки или видеофиксации аварийных ситуаций на дороге. Качество видео на большее не тянет.

Пример видео Artway AV-600. Основная камера:

Пример видео Artway AV-600. Парковочная камера:

Пример видео Artway AV-600. Без подключения парковочной камеры:

Вывод:

Есть разные категории пользователей и каждому свое. Зеркало с двумя камерами ARTWAY AV-600 за свою стоимость окупается полностью, так как он не только выполняет все свои основные задачи (видеофиксация) за свою минимальную стоимость, но и дает возможность использовать какие-то дополнительные (вторая камера).


Коментарии

Ваш электронный адрес не будет опубликован.